Jaké vybrat multimediální centrum?

CRT, LCD, Plasma, projekční TV, projektory a jiné technologie zobrazování

Moderátor: Moderátoři AVMania.cz

Odeslat příspěvekod alexandra111 25. 12. 2011 22:06

Máme plazmovou televizi 3D TX P42ST30,která mi přes USB na externím HDD nepřehrává všechny formáty,které bych potřebovala,např.některé mkv jdou a některé ne,nevím proč. A taky se mi některé filmy sekají,nebo zamrznou a jede mi přes to úplně nějaký jiný obraz.No,moje chyba,že jsem si to pořádně neověřila.Teď bych potřebovala poradit nějaké multimediální centrum,které přehraje všechny možné formáty a vezme HDD 1TB.Potřebuji nějaké levné do 2000,-kč a bez interního HDD.Mám dost externích.Nebo jestli jsou třeba nějaké DVD přehrávače s USB,které vezmou všechny formáty.Díky za radu
alexandra111
Kolemjdoucí

Odeslat příspěvekod Odar 25. 12. 2011 22:18

Sklamem ta, za 2000 nekupis nic, co "prehra vsetko".

Tie MKV sa pokusim rozviest. MKV (pripona suboru) nie je sam o sebe format. Je to len "obalka", ktora obsahuje viacero veci. Spravidla video stopu a audio stopu. Moze obsahovat viac audio stop, titulky (tiez ich moze byt viac) a este informacie o kapitolach (chapters). Predstav si to tak, ze do MKV je "zabalenych" viacero suborov.
Hlavny problem je v tom, ze video a audio stopa mozu byt v lubovolnom formate (=codecu). To, ze TV vie prehravat MKV neznamena, ze vie prehrat vsetky formaty, ktore su v MKV "zabalene". Video stopa moze byt napr. (pre HD ripy najpouzivanejsom) vo formate x264, ale moze to byt XviD, DivX, MPEG a podobne. Tak isto je to so zvukom. Moze to byt format LPCM, DTS, DD, MP3 . . .
Ak MKV obsahuje jednu zo stop, ktoru hardwareovo televizor nestiha (alebo nevie) prehravat, tak to bud nejde vobec, alebo to seka. Podrobne informacie, z coho je MKV zlozene zistis pomocou programu Media Info.

Tu je napr. vypis z jedneho fimu:

Format: Matroska
Format version: Version 2
File size: 8.75 GiB
Duration: 2h 0mn
Overall bit rate: 10.4 Mbps
Encoded date: UTC 2011-11-19 18:34:00
Writing application: mkvmerge v5.0.1 ('Es ist Sommer' built on Oct 9 2011 11:55:43
Writing library: libebml v1.2.2 + libmatroska v1.3.0

Video
ID: 1
Format: AVC
Format/Info: Advanced Video Codec
Format profile: High@L4.1
Format settings, CABAC: Yes
Format settings, ReFrames: 4 frames
Muxing mode: Header stripping
Codec ID: V_MPEG4/ISO/AVC
Duration: 2h 0mn
Bit rate: 9 785 Kbps
Width: 1 920 pixels
Height: 1 040 pixels
Display aspect ratio: 16:9
Frame rate: 24.000 fps
Color space: YUV
Chroma subsampling: 4:2:0
Bit depth: 8 bits
Scan type: Progressive
Bits/(Pixel*Frame): 0.204
Stream size: 8.03 GiB (92%)
Writing library: x264 core 118 r2085 8a62835
Encoding settings: cabac=1 / ref=4 / deblock=1:0:0 / analyse=0x3:0x133 / me=umh / subme=8 / psy=1 / psy_rd=1.00:0.00 / mixed_ref=1 / me_range=16 / chroma_me=1 / trellis=1 / 8x8dct=1 / cqm=0 / deadzone=21,11 / fast_pskip=0 / chroma_qp_offset=-2 / threads=12 / sliced_threads=0 / nr=0 / decimate=1 / interlaced=0 / bluray_compat=0 / constrained_intra=0 / bframes=3 / b_pyramid=2 / b_adapt=1 / b_bias=0 / direct=1 / weightb=1 / open_gop=0 / weightp=2 / keyint=250 / keyint_min=25 / scenecut=40 / intra_refresh=0 / rc_lookahead=40 / rc=2pass / mbtree=1 / bitrate=9785 / ratetol=1.0 / qcomp=0.60 / qpmin=0 / qpmax=69 / qpstep=4 / cplxblur=20.0 / qblur=0.5 / ip_ratio=1.40 / aq=1:1.00
Language: English
Default: Yes
Forced: No

Audio
ID: 2
Format: AC-3
Format/Info: Audio Coding 3
Mode extension: CM (complete main)
Muxing mode: Header stripping
Codec ID: A_AC3
Duration: 2h 0mn
Bit rate mode: Constant
Bit rate: 640 Kbps
Channel(s): 6 channels
Channel positions: Front: L C R, Side: L R, LFE
Sampling rate: 48.0 KHz
Bit depth: 16 bits
Compression mode: Lossy
Stream size: 550 MiB (6%)
Language: English
Default: Yes
Forced: No

Text #1
ID: 3
Format: UTF-8
Codec ID: S_TEXT/UTF8
Codec ID/Info: UTF-8 Plain Text
Language: Czech
Default: Yes
Forced: No

Text #2
ID: 4
Format: UTF-8
Codec ID: S_TEXT/UTF8
Codec ID/Info: UTF-8 Plain Text
Language: Slovak
Default: No
Forced: No

Text #3
ID: 5
Format: UTF-8
Codec ID: S_TEXT/UTF8
Codec ID/Info: UTF-8 Plain Text
Language: English
Default: No
Forced: No


Video je vo formate x264, AVC, Level Profile High@L4.1. Toto su asi najdolezitejsie informacie, ktore ta u HD filmov vo formate x264 budu zaujimat. Vacsina pristrojov ma problemy prehravat Level Profile vyssi, ako @L4.1. Dalej vidis z vypisu, ze je tam anglicka 6 kanalova AC3 stopa a ceske, slovenske a anglicke titulky.

To len pre informaciu, aby si mala predstavu, co vlastne MKV je :)

Ak chces skusit, ci ti prehravac prehra vsetko, tak skus toto testovacie video (samozrejme v 1080p). Ak ho pristroj prehra plynule, prehra 99,9% videi (vynimka sa vzdy najde).
Naposledy upravil Odar dne 25. 12. 2011 22:28, celkově upraveno 1
Odar
Trvalý BAN

Odeslat příspěvekod Ryan Giggs 25. 12. 2011 22:27

Sice všetko neprehra, ale to žiadne mmc. Jedine PC, resp. MMC s operačnym systemom. Každopadne aj taketo lacne mmc toho prehra nepomerne viac ako akykoľvek televizor. Na subory, ktore sa nebudu dať prehrať človek narazi len zriedka. Z tych lacnych, ale dobrych napr. Asus O!Play mini plus (niečo nad 2000,-), nejaky Umax Egreat, Evolve.

Odar: nevidim zmysel vyberat mmc podla toho ci zvladne to Oceanic demo, kolko filmov je v tak vysokom datovom toku?
Ryan Giggs
TV expert
Uživatelský avatar

Odeslat příspěvekod ujoslav 26. 12. 2011 13:44

Nedávno som si vychutnal 40 stranovú diskusiu :-( na tvfreaku, kde rozoberali nove Panasonic plazmy. Podporu prehrávaných formátov majú veľmi slušnú, dokonca zvládajú v pohode aj DTS zvuk.

Prišlo sa tam na dva hlavné problémy, ktoré spôsobujú nekompatibilitu:

1. Pri vytváraní MKV balíčka v programe MKV Tools musí byť zaškrtntutá v nastaveniach voľba:
"Disable Header Removal Compression...".
V Odarovom výpise vidno, že to zaškrtntué nebolo - položka "Muxing mode: Header stripping" by tam byť nemala.
Tu je o tom viac napísané http://goo.gl/QQT9U

2. Video v MKV nesmie mať profil vyšší ako 5.1 (viď Format Profile v Odarovom výpise)

Pri splnení aspoň jednej z týchto vlastností to TV Panasonic určite neprehrá.
Inak tie nové telky zvládajú aj 20 GB BD ripy. Mám to vyskúšané.

Nainštaluj si ten soft "Media Info" ako radí Odar a hoď sem výpis nejakého filmu, ktorý ti nechce telka prehrať.
Bod 1 je veľmi jednoducho opraviteľný. Bod 2 bohužiaľ nie :-(

Tiež je dobré upgradovať firmvér v TV. Viem, že nedávno bol od Panasonicu update, ktorý riešil práve kompatibilitu pri prehrvávaní MKV (podrobnosti neuvedli).

Inak ja mám Xtreamer SW2 a ešte som nenašiel video, ktoré by neprehral.
Len užívateľské rozhranie je jedna veľká tragédia :grr:
Na cesty: Clip+ => UE Triple.Fi
Do práce: iAudio X5L 120GB => UE Triple.Fi
Doma zdroj: Carat-Ruby 2 / ARCAM CD72T
Repro: ARCAM A85 => Monitor Audio RS6
Slúchadlá: Dispre II JFET => Sennheiser HD800
ujoslav
Mírně pokročilý
Uživatelský avatar

Odeslat příspěvekod jito 26. 12. 2011 16:09

Pokud film v mkv nejde přehrát,tak ho stačí znova prohnat přes Merge bez komprese.
jito
HD SATan
Uživatelský avatar

Odeslat příspěvekod ilja2001 2. 1. 2012 11:43

Ujoslav: díky za ty popsané problémy s MKV u Panasonicu. Když jsem projel svých pár MKVček, tak zhruba polovina z nich měla v hlavičce tu položku "Muxing mode: Header stripping". Po novém uložení v MKV Tools s doporučeným nastavením už jedou v TV (Pan.ST30) všechny. Akorát TV trochu nestíhá některé MKV s rozlišením 1920x1080 (16:9), ty s rozlišením cca 1920x816 (21:9) jedou v pohodě.
ilja2001
Mírně pokročilý

Odeslat příspěvekod Laša 5. 1. 2012 17:53

A můžu se ještě zeptat, jak to tom prográmku prohnat bez komprese?nebo stačí to tam jenom načíst a nechat to program přechroupat, tak jak soubor načetl, nebo je to někde v nabídce?
Laša
Junior

Odeslat příspěvekod ilja2001 5. 1. 2012 19:56

Já jsem kromě nastavení v menu, které uvedl ujoslav nic jiného nenastavoval. Dokonce jsem teď měl jedno MKV, které nechtěl přehrát ani comp (chyba kodeku) a po projetí přes MKV Tools už funguje normálně.
ujoslav píše:Pri vytváraní MKV balíčka v programe MKV Tools musí byť zaškrtntutá v nastaveniach voľba: "Disable Header Removal Compression...".
ilja2001
Mírně pokročilý

Odeslat příspěvekod blazas 9. 4. 2012 22:26

Ahoj lidi,

mám MKV soubor nazvaný například HPADH.mkv. Mám televizor Panasonic p46G30e a k tomu připojuji externí disk Transcend, který mi normálně vše bez problému přehrává, ale občas se stane, že mkv začne běžet zvuk a obraz je šíleně zpožděnej a trhá se jako blázen. Na PC vše OK.

Zkoušel jsem vše možné v MKV merge a prostě nejsem schopnej to dát do kupy, nejede mi to.

Poradil by mi někdo, prosím?

Tady je sjetina z media info:

General
Format : Matroska
Format version : Version 2
File size : 6.66 GiB
Duration : 2h 26mn
Overall bit rate : 6 525 Kbps
Encoded date : UTC 2011-04-05 04:48:19
Writing application : mkvmerge v3.4.0 ('Rapunzel') сборка от May 15 2010 09:38:20
Writing library : libebml v0.8.0 + libmatroska v0.9.0

Video
ID : 1
Format : AVC
Format/Info : Advanced Video Codec
Format profile : High@L4.1
Format settings, CABAC : Yes
Format settings, ReFrames : 12 frames
Codec ID : V_MPEG4/ISO/AVC
Duration : 2h 26mn
Bit rate : 5 500 Kbps
Width : 1 280 pixels
Height : 534 pixels
Display aspect ratio : 2.40:1
Frame rate : 23.976 fps
Color space : YUV
Chroma subsampling : 4:2:0
Bit depth : 8 bits
Scan type : Progressive
Bits/(Pixel*Frame) : 0.336
Stream size : 5.48 GiB (82%)
Title : Harry.Potter.And.The.Deathly.Hallows.Part.1.2010.720p.BluRay.DD5.1.x264-EbP
Writing library : x264 core 114 r1924 08d04a4
Encoding settings : cabac=1 / ref=12 / deblock=1:-3:-3 / analyse=0x3:0x113 / me=tesa / subme=10 / psy=1 / psy_rd=1.20:0.00 / mixed_ref=1 / me_range=16 / chroma_me=1 / trellis=2 / 8x8dct=1 / cqm=0 / deadzone=21,11 / fast_pskip=0 / chroma_qp_offset=-2 / threads=6 / sliced_threads=0 / nr=0 / decimate=0 / interlaced=0 / constrained_intra=0 / bframes=9 / b_pyramid=2 / b_adapt=2 / b_bias=0 / direct=3 / weightb=1 / open_gop=0 / weightp=2 / keyint=250 / keyint_min=23 / scenecut=40 / intra_refresh=0 / rc=2pass / mbtree=0 / bitrate=5500 / ratetol=1.0 / qcomp=0.75 / qpmin=0 / qpmax=69 / qpstep=4 / cplxblur=20.0 / qblur=0.5 / ip_ratio=1.40 / pb_ratio=1.30 / aq=1:0.80
Language : English
Default : No
Forced : No

Audio #1
ID : 2
Format : AC-3
Format/Info : Audio Coding 3
Mode extension : CM (complete main)
Format settings, Endianness : Big
Codec ID : A_AC3
Duration : 2h 26mn
Bit rate mode : Constant
Bit rate : 384 Kbps
Channel(s) : 6 channels
Channel positions : Front: L C R, Side: L R, LFE
Sampling rate : 48.0 KHz
Bit depth : 16 bits
Compression mode : Lossy
Stream size : 401 MiB (6%)
Title : DD 5.1 Russian @ 384 kbps
Language : Russian
Default : Yes
Forced : Yes

Audio #2
ID : 3
Format : AC-3
Format/Info : Audio Coding 3
Mode extension : CM (complete main)
Format settings, Endianness : Big
Codec ID : A_AC3
Duration : 2h 26mn
Bit rate mode : Constant
Bit rate : 640 Kbps
Channel(s) : 6 channels
Channel positions : Front: L C R, Side: L R, LFE
Sampling rate : 48.0 KHz
Bit depth : 16 bits
Compression mode : Lossy
Stream size : 669 MiB (10%)
Title : DD 5.1 English @ 640 kbps
Language : English
Default : No
Forced : No

Text #1
ID : 4
Format : UTF-8
Codec ID : S_TEXT/UTF8
Codec ID/Info : UTF-8 Plain Text
Title : Russian, Forced
Language : Russian
Default : Yes
Forced : Yes

Text #2
ID : 5
Format : UTF-8
Codec ID : S_TEXT/UTF8
Codec ID/Info : UTF-8 Plain Text
Title : Russian, Full
Language : Russian
Default : No
Forced : No

Text #3
ID : 6
Format : UTF-8
Codec ID : S_TEXT/UTF8
Codec ID/Info : UTF-8 Plain Text
Title : English SDH
Language : English
Default : No
Forced : No
blazas
Junior


Kdo je online

Uživatelé procházející toto fórum: Žádní registrovaní uživatelé a 0 návštevníků