Philips Oled 2019 - problem s dekodovanim videa

CRT, LCD, Plasma, projekční TV, projektory a jiné technologie zobrazování

Moderátor: Moderátoři AVMania.cz

Odeslat příspěvekod michalko58 6. 12. 2021 13:32

Zdravim vsetkych!

V poslednej dobe som s mojou 55oled854 (najnovsi FW - plne aktualizovany Android 9 vratane aplikacii) narazil zatial na dva video subory ktore mi odmieta korektne prehrat (vid foto), nezavisle na prehravaci. Ci uz je to vstavany, VLC, Kodi alebo lubovolny iny dostupny na Google Play. V PC tieto subory prehra bez problemov, rovnako tak VLC v telefone. Je uplne jedno ci sa jedna o prehravanie cez siet (SMB) alebo z usb.

photo_2021-12-06_12-29-33.jpg
Pasy vo videu


Ked som skusal rozne nastavenia vo VLC na TV, aby zmizli tie pasy, pomohlo iba vypnutie hw dekodovania, avsak potom sa obraz nehybal, lebo sw to nezvladal.

Do vcera som hadzal vinu na zly subor a podobne, avsak ked mi ho korektne prehral VLC (rovnako tak aj interny prehravac) na 55pus7502 (najnovsi FW - plne aktualizovany Android 8 vratane aplikacii), spozornel som.

Stretli ste sa niekto s niecim podobnym?

Moje predbezne zavery su zatial taketo:
    1. Nejaky bug v kombinacii AndroidTV 9 +VLC + HW (toto by malo byt preverene v priebehu zajtrajska na rovnakom modeli TV). Teoreticky odstranitelne aktualizaciou od vyrobcu.
    2. Zacinajuca pomala smrt MB v mojej TV a teda pripadny dovod na reklamaciu.

Parametre problemoveho videa:

Kód: Vybrat vše
Format                         : Matroska
Format version                 : Version 4
File size                      : 22.9 GiB
Duration                       : 2 h 43 min
Overall bit rate               : 20.1 Mb/s
Encoded date                   : UTC 2021-11-18 03:07:46
Writing application            : mkvmerge v30.1.0 ('Forever And More') 64-bit
Writing library                : libebml v1.3.6 + libmatroska v1.4.9

Video
ID                             : 1
Format                         : HEVC
Format/Info                    : High Efficiency Video Coding
Format profile                 : Main 10@L5.1@High
Codec ID                       : V_MPEGH/ISO/HEVC
Duration                       : 2 h 43 min
Bit rate                       : 19.3 Mb/s
Width                          : 3 832 pixels
Height                         : 1 596 pixels
Display aspect ratio           : 2.40:1
Frame rate mode                : Constant
Frame rate                     : 23.976 (24000/1001) FPS
Color space                    : YUV
Chroma subsampling             : 4:2:0
Bit depth                      : 10 bits
Bits/(Pixel*Frame)             : 0.132
Stream size                    : 22.0 GiB (96%)
Writing library                : x265 3.0+1-ed72af837053:[Windows][GCC 8.2.0][64 bit] 10bit
Encoding settings              : cpuid=1111039 / frame-threads=6 / numa-pools=40 / wpp / no-pmode / no-pme / no-psnr / no-ssim / log-level=2 / input-csp=1 / input-res=3832x1596 / interlace=0 / total-frames=235056 / level-idc=51 / high-tier=1 / uhd-bd=0 / ref=3 / no-allow-non-conformance / repeat-headers / annexb / aud / hrd / info / hash=0 / no-temporal-layers / no-open-gop / min-keyint=1 / keyint=24 / gop-lookahead=0 / bframes=4 / b-adapt=2 / b-pyramid / bframe-bias=0 / rc-lookahead=25 / lookahead-slices=4 / scenecut=40 / radl=0 / no-splice / no-intra-refresh / ctu=64 / min-cu-size=8 / no-rect / no-amp / max-tu-size=32 / tu-inter-depth=1 / tu-intra-depth=1 / limit-tu=0 / rdoq-level=0 / dynamic-rd=0.00 / no-ssim-rd / signhide / no-tskip / nr-intra=0 / nr-inter=0 / no-constrained-intra / strong-intra-smoothing / max-merge=2 / limit-refs=3 / no-limit-modes / me=1 / subme=2 / merange=57 / temporal-mvp / weightp / no-weightb / no-analyze-src-pics / deblock=0:0 / no-sao / no-sao-non-deblock / rd=3 / no-early-skip / rskip / no-fast-intra / no-tskip-fast / no-cu-lossless / no-b-intra / no-splitrd-skip / rdpenalty=0 / psy-rd=2.00 / psy-rdoq=0.00 / no-rd-refine / no-lossless / cbqpoffs=0 / crqpoffs=0 / rc=crf / crf=16.0 / qcomp=0.60 / qpstep=4 / stats-write=0 / stats-read=0 / vbv-maxrate=160000 / vbv-bufsize=160000 / vbv-init=0.9 / crf-max=0.0 / crf-min=0.0 / ipratio=1.40 / pbratio=1.30 / aq-mode=1 / aq-strength=1.00 / cutree / zone-count=0 / no-strict-cbr / qg-size=32 / no-rc-grain / qpmax=69 / qpmin=0 / no-const-vbv / sar=1 / overscan=0 / videoformat=5 / range=0 / colorprim=2 / transfer=2 / colormatrix=2 / chromaloc=0 / display-window=0 / max-cll=0,0 / min-luma=0 / max-luma=1023 / log2-max-poc-lsb=8 / vui-timing-info / vui-hrd-info / slices=1 / opt-qp-pps / opt-ref-list-length-pps / no-multi-pass-opt-rps / scenecut-bias=0.05 / no-opt-cu-delta-qp / no-aq-motion / no-hdr / no-hdr-opt / no-dhdr10-opt / no-idr-recovery-sei / analysis-reuse-level=5 / scale-factor=0 / refine-intra=0 / refine-inter=0 / refine-mv=0 / refine-ctu-distortion=0 / no-limit-sao / ctu-info=0 / no-lowpass-dct / refine-analysis-type=0 / copy-pic=1 / max-ausize-factor=1.0 / no-dynamic-refine / no-single-sei / no-hevc-aq / qp-adaptation-range=1.00
Default                        : Yes
Forced                         : No

Audio
ID                             : 2
Format                         : E-AC-3 JOC
Format/Info                    : Enhanced AC-3 with Joint Object Coding
Commercial name                : Dolby Digital Plus with Dolby Atmos
Codec ID                       : A_EAC3
Duration                       : 2 h 43 min
Bit rate mode                  : Constant
Bit rate                       : 768 kb/s
Channel(s)                     : 6 channels
Channel layout                 : L R C LFE Ls Rs
Sampling rate                  : 48.0 kHz
Frame rate                     : 31.250 FPS (1536 SPF)
Compression mode               : Lossy
Stream size                    : 898 MiB (4%)
Title                          : 5.1 Atmos EN
Language                       : English
Service kind                   : Complete Main
Default                        : No
Forced                         : No
Complexity index               : 16
Number of dynamic objects      : 15
Bed channel count              : 1 channel
Bed channel configuration      : LFE

Text
ID                             : 3
Format                         : UTF-8
Codec ID                       : S_TEXT/UTF8
Codec ID/Info                  : UTF-8 Plain Text
Duration                       : 2 h 35 min
Bit rate                       : 45 b/s
Count of elements              : 1558
Stream size                    : 52.5 KiB (0%)
Title                          : CZ
Language                       : Czech
Default                        : Yes
Forced                         : No

Menu
00:00:00.000                   : en:Chapter 1
00:11:57.125                   : en:Chapter 2
00:27:09.750                   : en:Chapter 3
00:43:46.000                   : en:Chapter 4
00:56:58.099                   : en:Chapter 5
01:04:09.000                   : en:Chapter 6
01:13:06.500                   : en:Chapter 7
01:22:28.832                   : en:Chapter 8
01:33:49.332                   : en:Chapter 9
01:51:42.000                   : en:Chapter 10
02:06:54.000                   : en:Chapter 11
02:25:23.500                   : en:Chapter 12
02:35:07.000                   : en:Chapter 13
michalko58
Mírně pokročilý

Odeslat příspěvekod storm 6. 12. 2021 17:55

Pošli mi link na soubor do pm, vyzkoušim ho na své TV (philips 855)
storm
Mírně pokročilý

Odeslat příspěvekod jito 6. 12. 2021 19:50

jito
HD SATan
Uživatelský avatar

Odeslat příspěvekod michalko58 7. 12. 2021 06:16

Keby to bolo zle ripnute, mal by s tym suborom mat problem aj druhy TV, avsak akosi nema a to je podozrive.
michalko58
Mírně pokročilý

Odeslat příspěvekod eviljack 7. 12. 2021 06:20

Těžko říct, počítám, že jsi tam měl i jiná videa s vyšším datovým tokem, která ta telka dala bez problému, takže pak by to skutečně mohla být nějaká chyba v souboru, kterou jiná telka zkousne. Nebo už jsi to stihnul vyzkoušet na tom stejném modelu?
Harman Kardon 6500 + WTX Microstreamer + Castle Acoustics MK Severn II
Yamaha RX-V765 + Heco Metas 500 set + Heco Krypton Subwoofer
Projektor Benq W1090
Asustor AS6102T
eviljack
Mírně pokročilý

Odeslat příspěvekod ppepko 7. 12. 2021 06:23

Takto nejako sa mi spravalo video s dolby vision, ktore x96max nedokazal prehrat. Ale priamo televizor ho prehral normalne ...
ppepko
Junior

Odeslat příspěvekod eviljack 7. 12. 2021 06:31

Podle specifikací, co jsem našel na odkazu níže, by to mělo ten zvukový kodek umět:

https://www.flatpanelshd.com/philips_oled854_2019.php
Harman Kardon 6500 + WTX Microstreamer + Castle Acoustics MK Severn II
Yamaha RX-V765 + Heco Metas 500 set + Heco Krypton Subwoofer
Projektor Benq W1090
Asustor AS6102T
eviljack
Mírně pokročilý

Odeslat příspěvekod michalko58 7. 12. 2021 08:07

eviljack píše:Těžko říct, počítám, že jsi tam měl i jiná videa s vyšším datovým tokem, která ta telka dala bez problému, takže pak by to skutečně mohla být nějaká chyba v souboru, kterou jiná telka zkousne. Nebo už jsi to stihnul vyzkoušet na tom stejném modelu?


Dnes odovzdam subor, tak vecer mozno budem vediet. Samozrejme, s vacsimi subormi tiez nie je problem. Urcite dam vediet.

ppepko píše:Takto nejako sa mi spravalo video s dolby vision, ktore x96max nedokazal prehrat. Ale priamo televizor ho prehral normalne ...


S dolby vision nema TV absolutne ziadny problem, ale chapem kam smerujes. rozne kombinacie hw sa spravaju odlisne. Uvidim vecer, co ta druha TV.

eviljack píše:Podle specifikací, co jsem našel na odkazu níže, by to mělo ten zvukový kodek umět:

https://www.flatpanelshd.com/philips_oled854_2019.php


Zvuk ide bez problemov, jediny problem je to video.
michalko58
Mírně pokročilý

Odeslat příspěvekod michalko58 7. 12. 2021 20:01

Takze robi to aj na tej druhej TV (rovnaky model ako moja).

Problem bude teda zjavne v kombinacii hw+sw.

Edit: Rovnako sa to sprava aj na 50pus7304, tiez model z roku 2019 s rovnakym cpu aj gpu

Neviete ci je nejaky software, ktory dokaze preverit kompatibilitu videa s konkretnym prehravacom/TV?
michalko58
Mírně pokročilý

Odeslat příspěvekod tombas 7. 12. 2021 21:36

Není jednodušší ten film ripnout do jiného formátu, který ta TV bez problémů zvládne?
tombas
Pokročilý
Uživatelský avatar

Odeslat příspěvekod michalko58 8. 12. 2021 08:07

No, ako sa to vezme. Nemam najnovsi hardware doma, ktory by mal hw podporu H265, cize to bude pomerne dlho trvat.

Musim to nejak oznamit do Philipsu, nech to daju dokopy, to by bol najlepsi pripad.

Druha vec je ta, ze by som rad zistil, ktory konkretny format robi problem, lebo nechcem zazit situaciu, ked nieco budem stahovat niekolko hodin a potom bude taketo prekvapenie :-D
michalko58
Mírně pokročilý

Odeslat příspěvekod eviljack 8. 12. 2021 09:37

Tak jedine postahovat samply ruznych filmu dle kodeku (vetsinou to byva v info uvedene stejne, jako jsi to sem daval - vypis z mediainfo), a zabit vikend zkousenim. Obavam se, ze asi zadny soft, co by pojal vsechny mozne kombinace, neexistuje.
Harman Kardon 6500 + WTX Microstreamer + Castle Acoustics MK Severn II
Yamaha RX-V765 + Heco Metas 500 set + Heco Krypton Subwoofer
Projektor Benq W1090
Asustor AS6102T
eviljack
Mírně pokročilý

Odeslat příspěvekod storm 8. 12. 2021 11:12

Tak jsem si stáhnul ukázku ze souboru a TV mi ukáže přesně to samé a navic v PC to taky neni uplně plnulý. A to mám plno 4k ripů, spíš bych to viděl na špatně udělaný rip
storm
Mírně pokročilý

Odeslat příspěvekod michalko58 8. 12. 2021 14:38

Zly rip by ale nefungoval uplne bez problemov na Philipse z roku 2017...

Takze bud to bude tym AndroidTV 9 alebo pouzitym CPU, pripadne ich kombinaciou.

Vdaka za ochotu to vyskusat.
michalko58
Mírně pokročilý

Odeslat příspěvekod EisySK 8. 12. 2021 15:38

ked tii too robi jeden film/subor z x dalsich tak neje o com. zly rip. co samozrejme neznamena ze nejaka dalsia telka ci zariadene ho neprehraje bez problemov.
EisySK
Kolemjdoucí

Další stránka

Kdo je online

Uživatelé procházející toto fórum: Žádní registrovaní uživatelé a 0 návštevníků