Audiofilské nahrávky/Feel different!

Hifistudia, hifibazary a témata týkající se AV, která nelze zařadit do ostatních sekcí

Moderátor: Moderátoři AVMania.cz

Odeslat příspěvekod ScRyX 21. 7. 2011 12:43

Kvalitný LP rip vo všetkom prekoná CD. Skús na avaxhome.ws niečo od užívateľa Dr. Robert.
A aby som len nekecal, prispejem tiež niečím :P Prekvapivo skvelý zvuk :)
Obrázek
Apple iPhone 4/Apple iPhone 3G 16GB Black / Sony Vaio F11ZE + Unique Melody Miracle
Sony VAIO VGN-TX2XP(Foobar2k) + Hifiman EF2 + AKG K701 (left at home)
Phonaky obcas akurat tak do mhd :)
ScRyX
Mírně pokročilý
Uživatelský avatar

Odeslat příspěvekod Bína 5. 8. 2011 22:27

Obrázek

Asi nejlepší soundtrack všech dob v super kvalitě.


Ukázka:

Prozatím mám jen v MP3, CD ale už objednáno.
CIEM: qdc 8CS|AAW W500|HEIR 10.A|HIFIMAN RE1000
IEM: NOBLE Katana & Sage
DAP: SONY WM1A|SHANLING M5s & M2X & M0
TWS: Shanling MTW100BA

Zaměstnanec firmy Shanling, tohoto času v Číně
Bína
Sluchátkový recenzent
Uživatelský avatar

Odeslat příspěvekod Audiofiller 5. 8. 2011 23:58

Stanislav Barek & Adib Ghali - Ragtime Guitar
folder.jpg
folder.jpg (7.13 ) Zobrazeno 19762 krát


popis - parádní, melodická akustická kytara
špičkový zvuk
Audiofiller
Mírně pokročilý
Uživatelský avatar

Odeslat příspěvekod Imagios 19. 8. 2011 23:35

panove tak taky prihodim svuj dil do mlyna, brouzdal sem okolo bonton landu a koupil za 99,- CD ktery me totalne vyrazilo dech kvalitou nahravky, upozornuju ze mam bedny na akustickou muziku, Xmax repra 1,5 mm nicmene basy ty nahravky pri -33Db rozvibrovali muj gauc... muzika znela naprosto plasticky,ze sem mel pocit ze mi nekdo vymenil aparaturu a to sem predim mel v prehravaci Sade, jedna se o nasledujici CD:
Xavir Rudd: White Moth
Obrázek

Nedavno sem prave nad tim premejslel, jak je mozny ze CD z japonska zni o tridu nekde jinde, mel sem pujceny nejaky japonsky popovi veci a vzdycky me zarazila cistota nahravky, krasne oddeleny nastroje a vubec "zivost"
tohle CD ma obdobnou kvalitu... vrele doporucuju
Imagios
Mírně pokročilý

Odeslat příspěvekod Odar 19. 12. 2011 17:49

192 / 24
Obrázek
https://www.hdtracks.com/index.php?file ... 3497936588

Bodaj by kazda rockova nahravka mala takuto kvalitu.
Odar
Trvalý BAN

Odeslat příspěvekod MakcuPikcu 19. 12. 2011 19:40

Relax a prijemny zvuk
Obrázek
Samsung Galaxy ACE 2
MakcuPikcu
Trvalý BAN
Uživatelský avatar

Odeslat příspěvekod kingie 16. 3. 2012 19:12

Chesky Records - The Ultimate Demonstration Disk
Obrázek

Akusticke nahravky pro audiofily, co predvadeji "jak" se ma nahravat s co nejprirozenejsim zvukem a vyuzitim prostoru. Kazdy track ma predmluvu, ktera vysvetluje, co bylo cilem ktere nahravky. Hudebne jde predevsim o blues, jazz, chorovou a klasickou hudbu.

Audio sestavu na tom asi neotestujete, protoze na tom zni bozsky vsecko i na tech nejlevnejsich suntech. Co bych obzvlast vyzdvihl jsou zvuky perkusi - ale pozor, pri nich pak vam muze dojit, ze vetsina vasi oblibene hudby je nazvucena zle :D
kingie
Junior

Odeslat příspěvekod Andrejsvk 20. 3. 2012 01:30

Topping DX3 Pro + Focal Alpha 65 / Beyerdynamic DT150 + Brainwavz pads

ignore list : Petulda, Peny, bacil2, platprd
Andrejsvk
Pokročilý
Uživatelský avatar

Odeslat příspěvekod Harvester 21. 3. 2012 07:36

Roger Waters - Amused to Death.
___________________________________
Harvester
Harvester
Kolemjdoucí

Odeslat příspěvekod MartinV. 22. 3. 2012 16:24

Je tady toho hrozně moc, ale třeba to sem ještě nikdo nedával.
Tommy Tallarico - Soundtrack ke hře MDK

MartinV.
Kolemjdoucí

Odeslat příspěvekod kingie 22. 3. 2012 17:37

Prakticky vse od solove produkce Anne Dudley(zameruje se predevsim na filmovou hudbu) je nazvucene vyborne.
http://grooveshark.com/#!/artist/Anne+Dudley/74630

Byla clenkou muzikanskeho seskupeni Art of noise, kteri zacinali na elektronicke muzice, kterou audiofilum asi nedoporucim, ale jejich nahravky od r. 1986 rozhodne stoji za pozornost(me se libi i hudebne, ale vkus ma kazdy jiny, takze ted myslim hlavne zvuk).
Pro ukazku http://grooveshark.com/#!/search?q=art+of+noise
kingie
Junior

Odeslat příspěvekod MartinV. 23. 3. 2012 21:51

Právě jsem narazil na výýýýborné ripCD
Queen - A Night At The Opera (1975) [24K+Gold DCC] Mastered by STEVE HOFFMAN.
MartinV.
Kolemjdoucí

Odeslat příspěvekod Odar 19. 4. 2012 12:50

Gustav Mahler - Symphony No. 1 in D major Der Titan 2007

Obrázek

foobar2000 1.1.7 / Dynamic Range Meter 1.1.1
log date: 2012-04-15 22:50:12

--------------------------------------------------------------------------------
Analyzed: Gustav Mahler / Gustav Mahler: Sinfonie Nr.1
--------------------------------------------------------------------------------

DR Peak RMS Duration Track
--------------------------------------------------------------------------------
DR18 -7.61 dB -33.51 dB 15:32 01-I. Langsam. Schleppend. Wie ein Naturlaut.-Immer sehr gemächlich
DR16 -9.89 dB -31.68 dB 7:41 02-II. Kräftig bewegt, doch nicht zu schnell.-Trio. Recht gemächlich
DR18 -18.25 dB -41.90 dB 10:56 03-III. Feierlich und gemessen, ohne zu schleppen.
DR16 -6.22 dB -27.91 dB 20:55 04-IV. Stürmisch bewegt.
DR16 -16.99 dB -39.55 dB 6:41 05-Blumine (Andante allegretto)
--------------------------------------------------------------------------------

Number of tracks: 5
Official DR value: DR17

Samplerate: 2822400 Hz / PCM Samplerate: 88200 Hz
Channels: 2
Bits per sample: 1
Bitrate: 5645 kbps
Codec: DSD
Odar
Trvalý BAN

Odeslat příspěvekod Audiofiller 19. 4. 2012 14:06

Odar: Je to dobrý i hudebně? :-)
Audiofiller
Mírně pokročilý
Uživatelský avatar

Odeslat příspěvekod Odar 19. 4. 2012 14:18

Nakolko klasiku moc nemusim a vydrzal som to pocuvat popri praci cele - tak ano :mrgreen:
Odar
Trvalý BAN

Předchozí stránkaDalší stránka

Kdo je online

Uživatelé procházející toto fórum: Žádní registrovaní uživatelé a 0 návštevníků